Justice league Vs Teen Titans [Castellano/Latino]

maxresdefault

Título: Justice league vs Teen Titans
Año: 12 de Abril de 2016
Autores del proyecto: Songohan14 (Sincronización de audios)
Características: Blu-ray-rip (1916×1076)

  1. Peso: 3gb (aprox)

  2. Duración: 1hr 19m 12s

  3. Idioma: 3 Audios

    1.     Español Latinoamérica (Venezuela. Estudio: Etcétera Group)
    2.     Español (España)
    3.     Inglés (EUA)
  1. Contenedor .mkv

  2. Caracteristicas técnicas :Video
    ID : 1
    Format : AVC
    Format/Info : Advanced Video Codec
    Format profile : High@L4
    Format settings, CABAC : Yes
    Format settings, ReFrames : 4 frames
    Codec ID : V_MPEG4/ISO/AVC
    Duration : 1h 19mn
    Bit rate : 5 063 Kbps
    Width : 1 916 pixels
    Height : 1 076 pixels
    Display aspect ratio : 16:9
    Frame rate mode : Constant
    Frame rate : 23.976 (23976/1000) fps
    Color space : YUV
    Chroma subsampling : 4:2:0
    Bit depth : 8 bits
    Scan type : Progressive
    Bits/(Pixel*Frame) : 0.102
    Stream size : 2.80 GiB (83%)
    Title : Justice League vs Teen Titans
    Language : English
    Default : Yes
    Forced : Yes
    Color range : Limited
    Color primaries : BT.709
    Transfer characteristics : BT.709
    Matrix coefficients : BT.709Audio #1
    ID : 2
    Format : MPEG Audio
    Format version : Version 1
    Format profile : Layer 3
    Mode : Joint stereo
    Codec ID : A_MPEG/L3
    Codec ID/Hint : MP3
    Duration : 1h 19mn
    Bit rate mode : Constant
    Bit rate : 320 Kbps
    Channel(s) : 2 channels
    Sampling rate : 48.0 KHz
    Frame rate : 41.667 fps (1152 spf)
    Compression mode : Lossy
    Stream size : 181 MiB (5%)
    Title : Español Latinoamérica [Songohan14.wordpress.com]
    Writing library : LAME3.99r
    Encoding settings : -m j -V 4 -q 3 -lowpass 20.5
    Language : Spanish
    Default : Yes
    Forced : YesAudio #2
    ID : 3
    Format : MPEG Audio
    Format version : Version 1
    Format profile : Layer 3
    Mode : Joint stereo
    Codec ID : A_MPEG/L3
    Codec ID/Hint : MP3
    Duration : 1h 19mn
    Bit rate mode : Constant
    Bit rate : 320 Kbps
    Channel(s) : 2 channels
    Sampling rate : 48.0 KHz
    Frame rate : 41.667 fps (1152 spf)
    Compression mode : Lossy
    Stream size : 181 MiB (5%)
    Title : Español España [Songohan14.wordpress.com]
    Writing library : LAME3.99r
    Encoding settings : -m j -V 4 -q 3 -lowpass 20.5
    Language : Spanish
    Default : No
    Forced : NoAudio #3
    ID : 4
    Format : AC-3
    Format/Info : Audio Coding 3
    Mode extension : CM (complete main)
    Format settings, Endianness : Big
    Codec ID : A_AC3
    Duration : 1h 19mn
    Bit rate mode : Constant
    Bit rate : 384 Kbps
    Channel(s) : 6 channels
    Channel positions : Front: L C R, Side: L R, LFE
    Sampling rate : 48.0 KHz
    Frame rate : 31.250 fps (1536 spf)
    Compression mode : Lossy
    Stream size : 217 MiB (6%)
    Title : English
    Language : English
    Default : No
    Forced : NoText #1
    ID : 5
    Format : UTF-8
    Codec ID : S_TEXT/UTF8
    Codec ID/Info : UTF-8 Plain Text
    Duration : 1h 15mn
    Bit rate : 43 bps
    Count of elements : 817
    Stream size : 24.1 KiB (0%)
    Title : English Subtitles
    Language : English
    Default : No
    Forced : No

    Text #2
    ID : 6
    Format : UTF-8
    Codec ID : S_TEXT/UTF8
    Codec ID/Info : UTF-8 Plain Text
    Duration : 1h 15mn
    Bit rate : 45 bps
    Count of elements : 777
    Stream size : 25.4 KiB (0%)
    Title : Subtítulos Español
    Language : Spanish
    Default : No
    Forced : No

Justice League vs Teen Titans [Songohan14.wordpress.com].mkv_snapshot_00.06.23_[2016.07.04_22.19.03] Justice League vs Teen Titans [Songohan14.wordpress.com].mkv_snapshot_00.09.12_[2016.07.04_22.19.32] Justice League vs Teen Titans [Songohan14.wordpress.com].mkv_snapshot_00.11.36_[2016.07.04_22.21.27] Justice League vs Teen Titans [Songohan14.wordpress.com].mkv_snapshot_00.11.53_[2016.07.04_22.20.19] Justice League vs Teen Titans [Songohan14.wordpress.com].mkv_snapshot_00.38.47_[2016.07.04_22.23.05] Justice League vs Teen Titans [Songohan14.wordpress.com].mkv_snapshot_00.54.50_[2016.07.04_22.23.24] Justice League vs Teen Titans [Songohan14.wordpress.com].mkv_snapshot_00.55.46_[2016.07.04_22.23.46] Justice League vs Teen Titans [Songohan14.wordpress.com].mkv_snapshot_01.13.39_[2016.07.04_22.24.11] Justice League vs Teen Titans [Songohan14.wordpress.com].mkv_snapshot_01.14.56_[2016.07.04_22.24.33]

 

Contraseña: songohan14

Descarga

Anuncios

Responder

Introduce tus datos o haz clic en un icono para iniciar sesión:

Logo de WordPress.com

Estás comentando usando tu cuenta de WordPress.com. Cerrar sesión / Cambiar )

Imagen de Twitter

Estás comentando usando tu cuenta de Twitter. Cerrar sesión / Cambiar )

Foto de Facebook

Estás comentando usando tu cuenta de Facebook. Cerrar sesión / Cambiar )

Google+ photo

Estás comentando usando tu cuenta de Google+. Cerrar sesión / Cambiar )

Conectando a %s